.sfz file example

classic Classic list List threaded Threaded
2 messages Options
Reply | Threaded
Open this post in threaded view
|  
Report Content as Inappropriate

.sfz file example

David Gritter
below is a generated .sfz file created with the previous java program.  
I requested 5 notes to be generated with 3 attack possibilites per note,
with separate release transients.  attacks are chosen based on a range
of midi note on velocities.  I told the program that the .wav file names
started at midi note 24, as is sometimes the case for organ dispositions


_____________beginning of .sfz file

<group>
amp_veltrack=0
ampeg_attack=0.005
ampeg_release=0.005

<region>
sample=Rohrflute16/024-C_1.wav
lovel=1
hivel=33
key=36
loop_mode=loop_continuous
<region>
sample=Rohrflute16/rel/024-C_1.wav
trigger=release
loop_mode=no_loop
lovel=1
hivel=33
key=36

<region>
sample=Rohrflute16/024-C_2.wav
lovel=34
hivel=78
key=36
loop_mode=loop_continuous
<region>
sample=Rohrflute16/rel/024-C_2.wav
trigger=release
loop_mode=no_loop
lovel=34
hivel=78
key=36

<region>
sample=Rohrflute16/024-C.wav
lovel=79
hivel=127
key=36
loop_mode=loop_continuous
<region>
sample=Rohrflute16/rel/024-C.wav
trigger=release
loop_mode=no_loop
lovel=79
hivel=127
key=36

<region>
sample=Rohrflute16/025-C#_1.wav
lovel=1
hivel=33
key=37
loop_mode=loop_continuous
<region>
sample=Rohrflute16/rel/025-C#_1.wav
trigger=release
loop_mode=no_loop
lovel=1
hivel=33
key=37

<region>
sample=Rohrflute16/025-C#_2.wav
lovel=34
hivel=78
key=37
loop_mode=loop_continuous
<region>
sample=Rohrflute16/rel/025-C#_2.wav
trigger=release
loop_mode=no_loop
lovel=34
hivel=78
key=37

<region>
sample=Rohrflute16/025-C#.wav
lovel=79
hivel=127
key=37
loop_mode=loop_continuous
<region>
sample=Rohrflute16/rel/025-C#.wav
trigger=release
loop_mode=no_loop
lovel=79
hivel=127
key=37

<region>
sample=Rohrflute16/026-D_1.wav
lovel=1
hivel=33
key=38
loop_mode=loop_continuous
<region>
sample=Rohrflute16/rel/026-D_1.wav
trigger=release
loop_mode=no_loop
lovel=1
hivel=33
key=38

<region>
sample=Rohrflute16/026-D_2.wav
lovel=34
hivel=78
key=38
loop_mode=loop_continuous
<region>
sample=Rohrflute16/rel/026-D_2.wav
trigger=release
loop_mode=no_loop
lovel=34
hivel=78
key=38

<region>
sample=Rohrflute16/026-D.wav
lovel=79
hivel=127
key=38
loop_mode=loop_continuous
<region>
sample=Rohrflute16/rel/026-D.wav
trigger=release
loop_mode=no_loop
lovel=79
hivel=127
key=38

<region>
sample=Rohrflute16/027-D#_1.wav
lovel=1
hivel=33
key=39
loop_mode=loop_continuous
<region>
sample=Rohrflute16/rel/027-D#_1.wav
trigger=release
loop_mode=no_loop
lovel=1
hivel=33
key=39

<region>
sample=Rohrflute16/027-D#_2.wav
lovel=34
hivel=78
key=39
loop_mode=loop_continuous
<region>
sample=Rohrflute16/rel/027-D#_2.wav
trigger=release
loop_mode=no_loop
lovel=34
hivel=78
key=39

<region>
sample=Rohrflute16/027-D#.wav
lovel=79
hivel=127
key=39
loop_mode=loop_continuous
<region>
sample=Rohrflute16/rel/027-D#.wav
trigger=release
loop_mode=no_loop
lovel=79
hivel=127
key=39

<region>
sample=Rohrflute16/028-E_1.wav
lovel=1
hivel=33
key=40
loop_mode=loop_continuous
<region>
sample=Rohrflute16/rel/028-E_1.wav
trigger=release
loop_mode=no_loop
lovel=1
hivel=33
key=40

<region>
sample=Rohrflute16/028-E_2.wav
lovel=34
hivel=78
key=40
loop_mode=loop_continuous
<region>
sample=Rohrflute16/rel/028-E_2.wav
trigger=release
loop_mode=no_loop
lovel=34
hivel=78
key=40

<region>
sample=Rohrflute16/028-E.wav
lovel=79
hivel=127
key=40
loop_mode=loop_continuous
<region>
sample=Rohrflute16/rel/028-E.wav
trigger=release
loop_mode=no_loop
lovel=79
hivel=127
key=40




------------------------------------------------------------------------------
Check out the vibrant tech community on one of the world's most
engaging tech sites, Slashdot.org! http://sdm.link/slashdot
_______________________________________________
jOrgan-user mailing list
[hidden email]
https://lists.sourceforge.net/lists/listinfo/jorgan-user
Reply | Threaded
Open this post in threaded view
|  
Report Content as Inappropriate

Re: .sfz file example

jbeach2646
David,  the SFZ editor (SFZed) will convert and save a soundfont preset, all
the notes of the compass with the same parameter settings that are in the
original.  Presumably, SFZ would be
not better quality sound output if given the exact same wave files to deal
with as Fluidsynth.

John Beach



------------------------------------------------------------------------------
Check out the vibrant tech community on one of the world's most
engaging tech sites, Slashdot.org! http://sdm.link/slashdot
_______________________________________________
jOrgan-user mailing list
[hidden email]
https://lists.sourceforge.net/lists/listinfo/jorgan-user
Loading...