example .sfz file

classic Classic list List threaded Threaded
1 message Options
Reply | Threaded
Open this post in threaded view
|  
Report Content as Inappropriate

example .sfz file

David Gritter
the .sfz file below was created with the java program.  It defines 9
multi-note regions with single attack sample and separate release
sample.  The text file defining the regions is also given.


______________beginning of region definition file

36 42 38
43 48 45
49 54 52
55 60 57
61 66 62
67 72 69
73 78 75
79 84 81
85 96 87


_____________beginning of .sfz file

<group>
amp_veltrack=0
ampeg_attack=0.005
ampeg_release=0.005

<region>
sample=rohrflute8/rf038-D.wav
lowkey=36
hikey=42
pitch_keycenter=38
loop_mode=loop_continuous
<region>
sample=rohrflute8/rel/rf038-D.wav
trigger=release
loop_mode=no_loop
lowkey=36
hikey=42
pitch_keycenter=38

<region>
sample=rohrflute8/rf045-A.wav
lowkey=43
hikey=48
pitch_keycenter=45
loop_mode=loop_continuous
<region>
sample=rohrflute8/rel/rf045-A.wav
trigger=release
loop_mode=no_loop
lowkey=43
hikey=48
pitch_keycenter=45

<region>
sample=rohrflute8/rf052-E.wav
lowkey=49
hikey=54
pitch_keycenter=52
loop_mode=loop_continuous
<region>
sample=rohrflute8/rel/rf052-E.wav
trigger=release
loop_mode=no_loop
lowkey=49
hikey=54
pitch_keycenter=52

<region>
sample=rohrflute8/rf057-A.wav
lowkey=55
hikey=60
pitch_keycenter=57
loop_mode=loop_continuous
<region>
sample=rohrflute8/rel/rf057-A.wav
trigger=release
loop_mode=no_loop
lowkey=55
hikey=60
pitch_keycenter=57

<region>
sample=rohrflute8/rf062-D.wav
lowkey=61
hikey=66
pitch_keycenter=62
loop_mode=loop_continuous
<region>
sample=rohrflute8/rel/rf062-D.wav
trigger=release
loop_mode=no_loop
lowkey=61
hikey=66
pitch_keycenter=62

<region>
sample=rohrflute8/rf069-A.wav
lowkey=67
hikey=72
pitch_keycenter=69
loop_mode=loop_continuous
<region>
sample=rohrflute8/rel/rf069-A.wav
trigger=release
loop_mode=no_loop
lowkey=67
hikey=72
pitch_keycenter=69

<region>
sample=rohrflute8/rf075-D#.wav
lowkey=73
hikey=78
pitch_keycenter=75
loop_mode=loop_continuous
<region>
sample=rohrflute8/rel/rf075-D#.wav
trigger=release
loop_mode=no_loop
lowkey=73
hikey=78
pitch_keycenter=75

<region>
sample=rohrflute8/rf081-A.wav
lowkey=79
hikey=84
pitch_keycenter=81
loop_mode=loop_continuous
<region>
sample=rohrflute8/rel/rf081-A.wav
trigger=release
loop_mode=no_loop
lowkey=79
hikey=84
pitch_keycenter=81

<region>
sample=rohrflute8/rf087-D#.wav
lowkey=85
hikey=96
pitch_keycenter=87
loop_mode=loop_continuous
<region>
sample=rohrflute8/rel/rf087-D#.wav
trigger=release
loop_mode=no_loop
lowkey=85
hikey=96
pitch_keycenter=87


------------------------------------------------------------------------------
Check out the vibrant tech community on one of the world's most
engaging tech sites, Slashdot.org! http://sdm.link/slashdot
_______________________________________________
jOrgan-user mailing list
[hidden email]
https://lists.sourceforge.net/lists/listinfo/jorgan-user
Loading...